<?xml version="1.0" standalone="no"?>
<!DOCTYPE svg PUBLIC "-//W3C//DTD SVG 1.1//EN" "http://www.w3.org/Graphics/SVG/1.1/DTD/svg11.dtd" >
<svg xmlns="http://www.w3.org/2000/svg">
<metadata>Generated by IcoMoon</metadata>
<defs>
<font id="icomoon" horiz-adv-x="1024">
<font-face units-per-em="1024" ascent="960" descent="-64" />
<missing-glyph horiz-adv-x="1024" />
<glyph unicode="&#x20;" horiz-adv-x="512" d="" />
<glyph unicode="&#xe900;" glyph-name="icon_account" d="M647.168 439.808c0-4.096 0-12.288 0-20.48 0-24.576 4.096-61.44 8.192-73.728l32.768-20.48c65.536-12.288 122.88-36.864 163.84-65.536 36.864-28.672 61.44-65.536 61.44-106.496v0-135.168c0-16.384-8.192-32.768-16.384-40.96v0c-12.288-12.288-24.576-16.384-40.96-16.384h-688.128c-16.384 0-32.768 8.192-40.96 16.384v0 0 0c-12.288 12.288-16.384 24.576-16.384 40.96v135.168c0 45.056 24.576 77.824 61.44 106.496 40.96 28.672 98.304 53.248 163.84 65.536l32.768 20.48c4.096 16.384 4.096 49.152 8.192 73.728 0 8.192 0 16.384 0 20.48-4.096 4.096-12.288 12.288-16.384 16.384-20.48 24.576-36.864 57.344-49.152 90.112s-16.384 65.536-16.384 98.304v0c0 0 0 0 0 0 0 4.096 0 8.192 0 12.288 0 16.384 0 28.672 0 40.96-4.096 139.264-4.096 241.664 217.088 241.664s221.184-102.4 217.088-237.568c0-12.288 0-24.576 0-40.96 0 0 0-4.096 0-8.192v-4.096c0 0 0 0 0 0v0 0c0-32.768-8.192-65.536-16.384-94.208-12.288-32.768-28.672-61.44-49.152-90.112-4.096-8.192-12.288-16.384-16.384-24.576v0zM393.216 452.096v0 0 0c16.384-16.384 32.768-28.672 49.152-40.96 20.48-12.288 45.056-20.48 69.632-20.48s49.152 8.192 69.632 20.48c24.576 12.288 45.056 32.768 65.536 57.344s36.864 53.248 45.056 81.92c8.192 20.48 12.288 45.056 16.384 65.536l-16.384 57.344c-4.096 8.192-4.096 20.48-4.096 28.672s0 16.384 0 24.576c0 8.192 0 20.48 0 28.672v0c0 8.192-4.096 16.384-8.192 20.48-16.384 20.48-57.344 12.288-98.304 0-24.576-4.096-45.056-12.288-65.536-12.288-16.384 0-36.864 4.096-61.44 12.288-40.96 8.192-86.016 20.48-102.4 0-8.192-4.096-12.288-12.288-12.288-20.48s0-20.48 0-28.672c0-8.192 0-16.384 0-24.576v0 0c0-8.192-4.096-20.48-4.096-28.672v0 0l-20.48-53.248c4.096-20.48 8.192-45.056 16.384-65.536 12.288-28.672 28.672-57.344 45.056-81.92 4.096-8.192 12.288-12.288 16.384-20.48v0zM393.216 423.424v0c0-28.672-4.096-61.44-8.192-77.824 0 0 4.096-4.096 4.096-4.096 12.288-8.192 28.672-20.48 40.96-24.576 28.672-16.384 57.344-20.48 81.92-20.48s45.056 8.192 69.632 20.48c12.288 8.192 28.672 16.384 40.96 24.576 4.096 0 4.096 4.096 8.192 4.096-4.096 16.384-4.096 49.152-8.192 77.824v4.096c-12.288-8.192-24.576-20.48-36.864-28.672-24.576-16.384-53.248-24.576-77.824-24.576-28.672 0-53.248 8.192-77.824 24.576-12.288 4.096-24.576 16.384-36.864 24.576v0zM708.608 685.568v16.384c4.096 122.88 4.096 217.088-196.608 217.088s-200.704-94.208-196.608-217.088v-16.384c0 8.192 0 12.288 4.096 16.384v0c0 8.192 0 16.384 0 24.576 0 12.288 0 20.48 4.096 32.768 0 12.288 4.096 20.48 12.288 32.768 24.576 28.672 73.728 16.384 122.88 8.192 20.48-4.096 40.96-8.192 57.344-8.192s40.96 4.096 61.44 12.288 94.208 24.576 118.784-8.192c8.192-8.192 12.288-20.48 12.288-28.672v0c0-8.192 4.096-20.48 4.096-32.768 0-8.192 0-16.384 0-24.576-4.096-12.288-4.096-20.48-4.096-24.576v0zM376.832 329.216l-20.48-12.288-4.096-4.096c12.288-20.48 32.768-36.864 57.344-49.152 32.768-16.384 69.632-24.576 102.4-24.576s69.632 8.192 98.304 24.576c28.672 12.288 49.152 28.672 61.44 49.152l-4.096 4.096-20.48 12.288c-8.192-4.096-12.288-8.192-20.48-12.288-36.864-24.576-73.728-36.864-110.592-40.96s-77.824 8.192-122.88 40.96c-4.096 4.096-8.192 8.192-16.384 12.288v0zM331.776 304.64c-61.44-12.288-114.688-32.768-151.552-61.44-32.768-24.576-53.248-57.344-53.248-90.112v-135.168c0-12.288 4.096-20.48 12.288-28.672v0c8.192-8.192 20.48-12.288 28.672-12.288h684.032c12.288 0 20.48 4.096 28.672 12.288s12.288 16.384 12.288 28.672v135.168c0 36.864-20.48 65.536-53.248 90.112-36.864 28.672-90.112 49.152-151.552 61.44-16.384-20.48-40.96-40.96-73.728-57.344s-69.632-24.576-106.496-24.576c-36.864 0-77.824 8.192-110.592 24.576-24.576 12.288-49.152 32.768-65.536 57.344z" />
<glyph unicode="&#xe901;" glyph-name="icon_billing" d="M368.64 710.144h286.72v57.344c0 4.096 0 8.192-4.096 12.288v0c-4.096 4.096-8.192 4.096-12.288 4.096h-253.952c-4.096 0-8.192 0-12.288-4.096v0c0-4.096-4.096-8.192-4.096-12.288v-57.344zM102.4 710.144h245.76v57.344c0 8.192 4.096 16.384 8.192 24.576v0c8.192 8.192 16.384 12.288 24.576 12.288h253.952c8.192 0 20.48-4.096 24.576-12.288v0 0c8.192-8.192 12.288-16.384 12.288-24.576v-57.344h245.76c16.384 0 32.768-8.192 45.056-16.384 12.288-12.288 20.48-28.672 20.48-45.056v-491.52c0-16.384-8.192-32.768-16.384-45.056v0c-12.288-12.288-28.672-16.384-45.056-16.384h-819.2c-16.384 0-32.768 8.192-45.056 16.384-8.192 8.192-16.384 24.576-16.384 40.96v491.52c0 16.384 8.192 32.768 16.384 45.056v0 0 0c16.384 12.288 28.672 20.48 45.056 20.48v0zM921.6 689.664h-819.2c-8.192 0-20.48-4.096-28.672-12.288v0c-8.192-8.192-12.288-16.384-12.288-28.672v-348.16h364.544v32.768c0 4.096 4.096 12.288 12.288 12.288h151.552c4.096 0 12.288-4.096 12.288-12.288v-32.768h364.544v348.16c0 12.288-4.096 20.48-12.288 28.672-12.288 8.192-24.576 12.288-32.768 12.288v0zM61.44 280.064v-126.976c0-12.288 4.096-20.48 12.288-28.672s16.384-12.288 28.672-12.288h815.104c12.288 0 20.48 4.096 28.672 12.288v0c8.192 8.192 12.288 16.384 12.288 28.672v126.976h-364.544v-57.344c0-4.096-4.096-12.288-12.288-12.288h-151.552c-4.096 0-12.288 4.096-12.288 12.288v57.344h-356.352zM577.536 288.256c0 0 0 4.096 0 0 0 4.096 0 4.096 0 0v32.768h-131.072v-28.672c0 0 0 0 0 0s0 0 0 0v-57.344h131.072v53.248z" />
<glyph unicode="&#xe902;" glyph-name="icon_boutiques" d="M503.808 1.536c-28.672 32.768-61.44 69.632-94.208 102.4-65.536 77.824-139.264 159.744-192.512 229.376v0 0c-20.48 32.768-36.864 65.536-49.152 98.304s-16.384 69.632-16.384 106.496c0 98.304 40.96 188.416 106.496 253.952s155.648 106.496 253.952 106.496 188.416-40.96 253.952-106.496c65.536-65.536 106.496-155.648 106.496-253.952v0c0-36.864-4.096-73.728-16.384-106.496s-28.672-69.632-49.152-98.304c-49.152-69.632-122.88-151.552-192.512-229.376-32.768-36.864-65.536-69.632-94.208-102.4-4.096-4.096-12.288-4.096-16.384 0 0 0 0 0 0 0v0zM512 697.856v0 0c45.056 0 81.92-16.384 110.592-45.056s45.056-65.536 45.056-110.592v0c0-40.96-16.384-81.92-45.056-110.592s-65.536-45.056-110.592-45.056c-40.96 0-81.92 16.384-110.592 45.056s-45.056 65.536-45.056 110.592v0c0 40.96 16.384 81.92 45.056 110.592s65.536 45.056 110.592 45.056zM385.024 665.088c-32.768-32.768-53.248-73.728-53.248-122.88v0c0-49.152 20.48-94.208 53.248-126.976s77.824-53.248 126.976-53.248c49.152 0 94.208 20.48 126.976 53.248s53.248 77.824 53.248 126.976v0c0 49.152-20.48 94.208-53.248 126.976s-77.824 53.248-126.976 53.248v0c-49.152-4.096-94.208-24.576-126.976-57.344v0zM425.984 120.32c28.672-32.768 61.44-65.536 86.016-94.208 24.576 28.672 53.248 61.44 86.016 94.208 69.632 77.824 143.36 155.648 192.512 225.28 20.48 28.672 36.864 61.44 45.056 94.208 12.288 32.768 16.384 65.536 16.384 102.4v0c0 94.208-36.864 176.128-98.304 237.568s-147.456 98.304-241.664 98.304c-94.208 0-176.128-36.864-237.568-98.304s-102.4-147.456-102.4-237.568c0-36.864 4.096-69.632 16.384-102.4s24.576-65.536 45.056-94.208v0c53.248-69.632 122.88-151.552 192.512-225.28z" />
<glyph unicode="&#xe903;" glyph-name="icon_conso" d="M827.392 247.296h-630.784v77.824h73.728c4.096 0 8.192 4.096 8.192 8.192s-4.096 8.192-8.192 8.192h-73.728c4.096 81.92 36.864 159.744 94.208 212.992 53.248 57.344 131.072 90.112 212.992 94.208v-73.728c0-4.096 4.096-8.192 8.192-8.192s8.192 4.096 8.192 8.192v73.728c81.92-4.096 159.744-40.96 212.992-94.208 57.344-53.248 94.208-131.072 94.208-212.992h-73.728c-4.096 0-8.192-4.096-8.192-8.192s4.096-8.192 8.192-8.192h73.728v-77.824zM512 300.544v0c8.192 0 12.288 0 16.384 8.192 4.096 4.096 8.192 8.192 8.192 16.384 0 4.096-4.096 12.288-8.192 16.384s-12.288 8.192-16.384 8.192c-4.096 0-12.288-4.096-16.384-8.192s-8.192-8.192-8.192-16.384c0-4.096 4.096-12.288 8.192-16.384s8.192-8.192 16.384-8.192zM540.672 292.352v0c8.192 8.192 12.288 20.48 12.288 28.672 0 4.096 0 8.192 0 12.288l106.496 53.248 77.824 40.96c4.096 4.096 8.192 8.192 4.096 12.288s-8.192 8.192-12.288 4.096l-77.824-40.96-106.496-53.248c-4.096 0-4.096 4.096-4.096 4.096-8.192 8.192-16.384 12.288-28.672 12.288s-20.48-4.096-28.672-12.288c-8.192-8.192-12.288-16.384-12.288-28.672 0-4.096 0-8.192 0-12.288l-24.576-12.288c-4.096-4.096-8.192-8.192-4.096-12.288s8.192-8.192 12.288-4.096l24.576 12.288c4.096 0 4.096-4.096 4.096-4.096 4.096-8.192 16.384-12.288 28.672-12.288 8.192 0 20.48 4.096 28.672 12.288zM180.224 329.216v0-90.112c0-4.096 4.096-8.192 8.192-8.192h651.264c4.096 0 8.192 4.096 8.192 8.192v90.112c0 0 0 4.096 0 4.096s0 4.096 0 4.096c0 90.112-36.864 172.032-98.304 233.472-57.344 61.44-143.36 98.304-233.472 98.304v0 0 0c-94.208 0-176.128-36.864-237.568-98.304s-98.304-143.36-98.304-233.472c0 0 0-4.096 0-4.096s0-4.096 0-4.096zM512 742.912v0c-114.688 0-217.088-45.056-290.816-118.784s-118.784-176.128-118.784-290.816v-126.976c0-16.384 8.192-32.768 16.384-40.96 12.288-8.192 24.576-16.384 40.96-16.384h704.512c16.384 0 32.768 8.192 40.96 16.384v0 0 0c8.192 12.288 16.384 24.576 16.384 40.96v126.976c0 114.688-40.96 217.088-118.784 290.816s-176.128 118.784-290.816 118.784zM786.432 611.84c69.632-69.632 114.688-167.936 114.688-274.432v-126.976c0-12.288-4.096-20.48-12.288-24.576v0c-8.192-8.192-16.384-12.288-24.576-12.288h-704.512c-12.288 0-20.48 4.096-24.576 12.288-8.192 4.096-12.288 12.288-12.288 20.48v126.976c0 106.496 45.056 204.8 114.688 274.432s167.936 114.688 274.432 114.688 204.8-40.96 274.432-110.592z" />
<glyph unicode="&#xe904;" glyph-name="icon_conso_appel" d="M831.488 132.608c4.096 16.384 0 32.768-8.192 45.056 0 0 0 0 0 0l-98.304 126.976c-12.288 16.384-28.672 28.672-49.152 28.672-12.288 0-20.48-4.096-32.768-8.192l-73.728-45.056c-12.288-8.192-20.48-20.48-24.576-32.768l-4.096-4.096-4.096 4.096c-28.672 12.288-98.304 49.152-143.36 118.784-40.96 69.632-45.056 143.36-45.056 180.224v8.192h8.192c12.288-4.096 28.672 0 40.96 8.192l73.728 45.056c28.672 16.384 36.864 53.248 20.48 81.92v0l-65.536 147.456c0 0 0 0 0 0-12.288 16.384-28.672 28.672-49.152 28.672-12.288 0-20.48-4.096-32.768-8.192l-94.208-61.44c-16.384-8.192-49.152-73.728-57.344-172.032-8.192-86.016 0-212.992 77.824-344.064 143.36-233.472 335.872-253.952 389.12-253.952 28.672 0 45.056 4.096 53.248 8.192l94.208 57.344c12.288 12.288 24.576 24.576 24.576 40.96zM798.72 112.128l-94.208-57.344c-4.096 0-16.384-4.096-45.056-4.096-53.248 0-237.568 16.384-376.832 245.76-77.824 122.88-86.016 245.76-77.824 327.68 8.192 98.304 40.96 155.648 49.152 163.84v0l98.304 57.344c8.192 0 16.384 4.096 24.576 4.096 12.288 0 28.672-8.192 32.768-20.48v0l61.44-151.552c0 0 0 0 0 0 12.288-20.48 4.096-45.056-12.288-57.344l-73.728-45.056c-8.192-8.192-20.48-8.192-32.768-4.096h-4.096l-40.96 69.632c-4.096 4.096-8.192 4.096-12.288 4.096 0 0-4.096-4.096-4.096-4.096 0-4.096 0-4.096 0-8.192l40.96-65.536v-4.096c-4.096-20.48-8.192-118.784 45.056-208.896 53.248-86.016 139.264-122.88 163.84-131.072v0l40.96-65.536c4.096-4.096 8.192-4.096 12.288-4.096 4.096 4.096 4.096 8.192 4.096 12.288l-40.96 65.536v4.096c0 8.192 8.192 20.48 16.384 28.672l73.728 45.056c8.192 4.096 12.288 4.096 20.48 4.096 16.384 0 28.672-8.192 36.864-20.48 0 0 0 0 0 0l102.4-126.976c4.096-8.192 8.192-20.48 4.096-28.672 4.096-12.288-4.096-20.48-12.288-24.576z" />
<glyph unicode="&#xe905;" glyph-name="icon_conso_appel_international" d="M675.84 177.664l-102.4 126.976c-12.288 16.384-28.672 28.672-49.152 28.672-12.288 0-20.48-4.096-32.768-8.192l-73.728-45.056c-12.288-8.192-20.48-20.48-24.576-32.768l-4.096-4.096-4.096 4.096c-24.576 8.192-98.304 45.056-139.264 114.688s-45.056 143.36-45.056 180.224v8.192h4.096c12.288-4.096 28.672 0 40.96 8.192l73.728 45.056c28.672 16.384 36.864 53.248 20.48 81.92v0l-61.44 151.552c0 0 0 0 0 0-12.288 16.384-28.672 28.672-49.152 28.672-12.288 0-24.576-4.096-32.768-8.192l-98.304-61.44c-12.288-8.192-45.056-73.728-53.248-172.032-8.192-86.016 0-212.992 77.824-344.064 143.36-233.472 335.872-253.952 389.12-253.952 28.672 0 45.056 4.096 53.248 8.192l94.208 57.344c12.288 8.192 24.576 20.48 24.576 36.864 4.096 20.48 4.096 32.768-8.192 49.152 4.096 0 0 0 0 0zM667.648 136.704c-4.096-12.288-8.192-20.48-20.48-24.576l-94.208-57.344c-4.096 0-16.384-4.096-45.056-4.096-53.248 0-237.568 16.384-376.832 245.76-77.824 122.88-86.016 245.76-77.824 327.68 8.192 98.304 40.96 155.648 49.152 163.84v0l102.4 53.248c8.192 4.096 12.288 4.096 20.48 4.096 12.288 0 28.672-8.192 32.768-20.48v0l69.632-147.456c0 0 0 0 0 0 12.288-20.48 4.096-45.056-16.384-57.344l-73.728-45.056c-8.192-8.192-24.576-8.192-32.768-4.096h-4.096l-40.96 69.632c-4.096 4.096-8.192 4.096-12.288 4.096 0 0-4.096-4.096-4.096-4.096 0-4.096 0-4.096 0-8.192l40.96-65.536v-4.096c-4.096-20.48-8.192-118.784 45.056-208.896 53.248-86.016 139.264-122.88 163.84-131.072v0l40.96-65.536c4.096-4.096 8.192-4.096 12.288-4.096 4.096 4.096 4.096 8.192 4.096 12.288l-40.96 65.536v4.096c0 8.192 8.192 20.48 16.384 28.672l73.728 45.056c8.192 4.096 12.288 4.096 20.48 4.096 16.384 0 28.672-8.192 36.864-20.48 0 0 0 0 0 0l102.4-126.976c8.192-8.192 12.288-20.48 8.192-28.672zM929.792 624.128v0c0 4.096 0 4.096 0 0v0c-61.44 86.016-151.552 135.168-253.952 135.168-98.304 0-192.512-49.152-249.856-131.072v0c0 0 0 0 0 0v0c-36.864-53.248-57.344-114.688-57.344-176.128 0-36.864 8.192-73.728 20.48-106.496l16.384 8.192c-12.288 28.672-16.384 57.344-16.384 86.016v8.192h98.304v-4.096c0-16.384 0-32.768 4.096-49.152l16.384 8.192c0 12.288-4.096 28.672-4.096 40.96v8.192h155.648v-147.456l20.48-24.576h65.536c4.096 0 8.192 4.096 8.192 8.192s-4.096 8.192-8.192 8.192h-65.536v155.648h167.936v-8.192c0-53.248-12.288-106.496-32.768-151.552v0c0 0 0 0 0-4.096v0c-16.384-40.96-40.96-73.728-69.632-94.208l20.48-28.672c65.536 20.48 122.88 57.344 159.744 114.688v0c0 0 0 0 0 4.096v0c36.864 53.248 57.344 114.688 57.344 176.128 0 53.248-20.48 114.688-53.248 163.84zM458.752 640.512c28.672 32.768 69.632 61.44 110.592 77.824l24.576 12.288-20.48-20.48c-20.48-20.48-36.864-45.056-49.152-77.824v-4.096h-73.728l8.192 12.288zM487.424 468.48v-4.096h-98.304v8.192c4.096 49.152 20.48 98.304 45.056 143.36v4.096h77.824l-4.096-8.192c-12.288-49.152-20.48-94.208-20.48-143.36zM659.456 632.32h-53.248c-4.096 0-8.192-4.096-8.192-8.192s4.096-8.192 8.192-8.192h53.248v-151.552h-155.648v8.192c0 53.248 12.288 106.496 28.672 147.456v0c0 0 0 0 0 4.096v0c28.672 65.536 69.632 106.496 114.688 118.784h8.192v-110.592zM786.432 722.432c40.96-16.384 81.92-45.056 110.592-77.824l8.192-12.288h-73.728v4.096c-12.288 28.672-28.672 57.344-49.152 77.824l-20.48 20.48 24.576-12.288zM679.936 742.912h8.192c49.152-4.096 90.112-40.96 122.88-102.4v-8.192h-135.168v110.592zM679.936 460.288v151.552h139.264v-4.096c16.384-40.96 24.576-90.112 28.672-139.264v-8.192h-167.936zM892.928 259.584c-28.672-32.768-65.536-57.344-106.496-73.728l-24.576-12.288 20.48 20.48c20.48 20.48 36.864 45.056 49.152 73.728v4.096h69.632l-8.192-12.288zM917.504 292.352v0l-77.824-4.096 4.096 8.192c16.384 40.96 24.576 90.112 24.576 139.264v4.096h57.344c4.096 0 8.192 4.096 8.192 8.192s-4.096 8.192-8.192 8.192h-57.344v4.096c0 49.152-8.192 94.208-24.576 139.264l-4.096 8.192h77.824v-4.096c32.768-45.056 45.056-102.4 45.056-155.648 4.096-53.248-16.384-106.496-45.056-155.648z" />
<glyph unicode="&#xe906;" glyph-name="icon_conso_europe" d="M512 894.464l-16.384-45.056h-45.056l36.864-24.576-12.288-45.056 36.864 28.672 36.864-28.672-16.384 45.056 40.96 24.576h-49.152zM524.288 71.168l-12.288 45.056-16.384-45.056h-45.056l36.864-24.576-12.288-45.056 36.864 28.672 36.864-28.672-16.384 45.056 40.96 24.576zM122.88 419.328l36.864-28.672-16.384 45.056 40.96 24.576h-49.152l-12.288 45.056-16.384-45.056h-45.056l36.864-24.576-12.288-45.056zM188.416 267.776l-12.288 45.056-16.384-45.056h-45.056l36.864-28.672-16.384-40.96 40.96 24.576 36.864-24.576-16.384 40.96 36.864 28.672zM860.16 267.776l-12.288 45.056-16.384-45.056h-45.056l36.864-28.672-12.288-40.96 36.864 24.576 36.864-24.576-12.288 40.96 36.864 28.672zM331.776 124.416l-16.384 45.056-12.288-45.056h-45.056l36.864-24.576-16.384-45.056 36.864 24.576 40.96-24.576-16.384 45.056 36.864 24.576zM720.896 124.416l-12.288 45.056-16.384-45.056h-45.056l36.864-24.576-16.384-45.056 40.96 24.576 36.864-24.576-16.384 45.056 36.864 24.576zM278.528 726.528l36.864 28.672 36.864-28.672-12.288 45.056 36.864 28.672h-45.056l-16.384 40.96-12.288-40.96h-45.056l36.864-28.672zM176.128 697.856l-16.384-40.96h-45.056l36.864-28.672-12.288-45.056 36.864 28.672 36.864-28.672-16.384 45.056 40.96 28.672h-49.152zM962.56 460.288h-45.056l-16.384 45.056-12.288-45.056h-49.152l40.96-24.576-16.384-45.056 36.864 28.672 36.864-28.672-12.288 45.056zM667.648 726.528l36.864 28.672 40.96-28.672-16.384 45.056 36.864 28.672h-45.056l-16.384 40.96-12.288-40.96h-45.056l36.864-28.672zM811.008 583.168l36.864 28.672 36.864-28.672-12.288 45.056 36.864 28.672h-45.056l-16.384 40.96-12.288-40.96h-45.056l36.864-28.672z" />
<glyph unicode="&#xe907;" glyph-name="icon_conso_internet" d="M966.656 153.088l-57.344 57.344c-4.096 4.096-12.288 4.096-16.384 0 0 0-4.096-4.096-4.096-8.192s0-4.096 4.096-8.192l57.344-57.344c16.384-16.384 16.384-40.96 0-57.344l-12.288-12.288c-8.192-8.192-16.384-12.288-28.672-12.288s-20.48 4.096-28.672 12.288l-73.728 73.728c-12.288 12.288-24.576 16.384-36.864 12.288s-20.48-16.384-24.576-32.768l-12.288-49.152c0-4.096-4.096-8.192-4.096-12.288 0 0-4.096 4.096-4.096 8.192l-110.592 323.584c-4.096 8.192-4.096 16.384 0 16.384 4.096 4.096 8.192 4.096 16.384 0l315.392-110.592c4.096 0 8.192-4.096 8.192-4.096v0 0c-4.096 0-4.096-4.096-12.288-4.096l-53.248-12.288c-4.096 0-8.192-8.192-8.192-12.288s8.192-8.192 12.288-8.192l53.248 12.288c16.384 4.096 28.672 12.288 28.672 24.576s-8.192 20.48-24.576 24.576l-311.296 110.592c-8.192 4.096-12.288 4.096-16.384 4.096-12.288 0-16.384-4.096-20.48-8.192s-12.288-16.384-4.096-40.96l110.592-315.392c8.192-16.384 16.384-24.576 24.576-24.576v0c12.288 0 16.384 8.192 24.576 28.672l12.288 49.152c4.096 8.192 8.192 16.384 12.288 16.384s12.288 0 16.384-8.192l73.728-73.728c12.288-12.288 24.576-16.384 40.96-16.384v0h4.096c16.384 0 28.672 8.192 40.96 16.384l12.288 12.288c12.288 12.288 16.384 28.672 16.384 40.96-4.096 20.48-12.288 36.864-20.48 45.056zM471.040 386.56c4.096 12.288 8.192 16.384 8.192 20.48l94.208 266.24h-28.672l-20.48-65.536c0 8.192-4.096 16.384-8.192 24.576s-8.192 16.384-16.384 28.672c-8.192 8.192-16.384 16.384-28.672 20.48s-28.672 8.192-49.152 8.192c-24.576 0-53.248-8.192-77.824-24.576-28.672-20.48-53.248-40.96-73.728-65.536s-32.768-53.248-45.056-86.016c-12.288-32.768-16.384-65.536-16.384-98.304 0-24.576 4.096-49.152 12.288-65.536s16.384-28.672 28.672-36.864c12.288-8.192 24.576-16.384 32.768-20.48 12.288-4.096 20.48-4.096 28.672-4.096 16.384 0 32.768 4.096 45.056 8.192s24.576 12.288 36.864 16.384 20.48 16.384 24.576 20.48c8.192 8.192 12.288 16.384 16.384 20.48v0c0-16.384 4.096-32.768 8.192-40.96s12.288-16.384 20.48-20.48c8.192-4.096 16.384-8.192 24.576-8.192s16.384 0 20.48 0c8.192 0 16.384 0 24.576 4.096h4.096l-4.096 24.576h-4.096c-4.096 0-12.288 0-16.384 0s-8.192 0-16.384 0c-4.096 0-12.288 4.096-16.384 4.096-4.096 4.096-12.288 8.192-16.384 16.384s-4.096 16.384-4.096 28.672c4.096 4.096 8.192 12.288 12.288 24.576zM499.712 546.304l-12.288-36.864-28.672-69.632c-4.096-8.192-8.192-20.48-16.384-36.864s-16.384-28.672-24.576-40.96c-12.288-12.288-24.576-24.576-40.96-36.864-16.384-8.192-36.864-16.384-61.44-16.384-8.192 0-16.384 0-24.576 4.096s-16.384 8.192-24.576 16.384c-8.192 8.192-16.384 16.384-20.48 28.672s-8.192 28.672-8.192 49.152c0 32.768 4.096 65.536 16.384 98.304 12.288 28.672 24.576 57.344 45.056 77.824 16.384 20.48 36.864 40.96 57.344 53.248s40.96 20.48 61.44 20.48c8.192 0 16.384 0 24.576-4.096s20.48-8.192 28.672-12.288c8.192-8.192 16.384-16.384 20.48-28.672s8.192-24.576 12.288-40.96c0-8.192 0-16.384-4.096-24.576zM561.152 173.568c-24.576-12.288-49.152-20.48-77.824-28.672s-57.344-8.192-81.92-8.192c-45.056 0-86.016 8.192-126.976 24.576s-77.824 40.96-110.592 69.632c-32.768 28.672-57.344 65.536-77.824 106.496s-24.576 90.112-24.576 143.36 8.192 102.4 28.672 143.36c20.48 45.056 45.056 81.92 77.824 110.592 32.768 32.768 69.632 57.344 110.592 73.728 45.056 20.48 90.112 28.672 135.168 28.672 36.864 0 69.632-4.096 106.496-16.384s69.632-28.672 98.304-53.248c28.672-24.576 53.248-53.248 73.728-86.016 20.48-36.864 28.672-77.824 28.672-122.88 0-28.672-4.096-57.344-12.288-81.92v-4.096l20.48-8.192v4.096c8.192 24.576 12.288 57.344 12.288 90.112 0 49.152-8.192 94.208-28.672 131.072s-45.056 69.632-77.824 94.208c-32.768 24.576-65.536 45.056-106.496 57.344s-77.824 20.48-118.784 20.48c-53.248 0-102.4-8.192-147.456-28.672s-86.016-45.056-118.784-81.92c-28.672-36.864-53.248-77.824-73.728-122.88s-28.672-94.208-28.672-147.456c0-49.152 8.192-98.304 28.672-143.36s45.056-81.92 77.824-114.688c32.768-32.768 69.632-57.344 114.688-77.824s94.208-28.672 143.36-28.672c24.576 0 57.344 4.096 86.016 12.288 24.576 4.096 53.248 16.384 77.824 28.672v0l-8.192 16.384z" />
<glyph unicode="&#xe908;" glyph-name="icon_conso_sms" d="M983.040 419.328c0 57.344-20.48 110.592-53.248 155.648-4.096 4.096-8.192 4.096-12.288 0s-4.096-8.192 0-12.288c32.768-45.056 49.152-94.208 49.152-147.456s-28.672-163.84-98.304-200.704v0c0 0-4.096 0-4.096 0v0c-4.096 0-4.096-4.096-4.096-8.192 0 0 0 0 0 0v0l24.576-151.552-151.552 94.208c0 0-4.096 0-8.192 0-40.96-12.288-86.016-16.384-126.976-16.384-77.824 0-147.456 16.384-212.992 53.248-4.096 4.096-8.192 0-12.288-4.096 0 0 0-4.096 0-8.192s4.096-4.096 4.096-4.096c65.536-36.864 139.264-53.248 221.184-53.248 45.056 0 86.016 4.096 126.976 16.384h4.096l163.84-102.4c4.096 0 8.192 0 8.192 0 4.096 0 4.096 4.096 4.096 8.192l-24.576 172.032h4.096c73.728 40.96 98.304 159.744 98.304 208.896zM868.352 562.688c0 172.032-184.32 311.296-413.696 311.296s-413.696-139.264-413.696-311.296c0-61.44 32.768-122.88 61.44-159.744 20.48-28.672 40.96-45.056 49.152-49.152h4.096l-28.672-172.032c0-4.096 0-8.192 4.096-8.192s8.192 0 8.192 0l176.128 102.4h4.096c45.056-12.288 90.112-16.384 135.168-16.384 225.28-8.192 413.696 131.072 413.696 303.104zM315.392 288.256c-4.096 0-4.096 0-8.192 0l-163.84-94.208 24.576 159.744c0 4.096 0 8.192-4.096 8.192 0 0-24.576 16.384-53.248 53.248-24.576 32.768-57.344 94.208-57.344 151.552 0 159.744 176.128 294.912 397.312 294.912 217.088 0 397.312-131.072 397.312-294.912s-176.128-294.912-397.312-294.912c-45.056-4.096-90.112 4.096-135.168 16.384z" />
<glyph unicode="&#xe909;" glyph-name="icon_conso_wallet" d="M897.024 484.864h-4.096v151.552c0 36.864-28.672 65.536-65.536 65.536h-77.824v86.016c0 36.864-28.672 65.536-65.536 65.536h-450.56c-151.552 0-172.032-77.824-172.032-122.88v-622.592c0-36.864 28.672-65.536 65.536-65.536h700.416c36.864 0 65.536 28.672 65.536 65.536v126.976c0 4.096-4.096 8.192-8.192 8.192s-8.192-4.096-8.192-8.192v-126.976c0-24.576-20.48-49.152-49.152-49.152h-700.416c-24.576 0-49.152 20.48-49.152 49.152v622.592c0 69.632 53.248 106.496 155.648 106.496h446.464c24.576 0 49.152-20.48 49.152-49.152v-86.016h-475.136c0 0 0 0 0 0v0 0c0 0 0 0 0 0-69.632 0-90.112 16.384-90.112 24.576 0 12.288 32.768 32.768 81.92 32.768h421.888c4.096 0 8.192 4.096 8.192 8.192s-4.096 8.192-8.192 8.192h-421.888c-57.344 4.096-98.304-20.48-98.304-49.152 0-12.288 8.192-45.056 102.4-45.056 0 0 0 0 0 0v0 0c0 0 0 0 0 0h573.44c24.576 0 49.152-20.48 49.152-49.152v-151.552h-57.344l4.096 8.192c0 0 0 0 0 4.096v36.864c0 4.096-4.096 8.192-8.192 8.192s-8.192-4.096-8.192-8.192v-36.864c0 0 0 0 0-4.096l4.096-8.192h-122.88c-40.96 0-77.824-32.768-77.824-77.824v-28.672c0-40.96 32.768-77.824 77.824-77.824h118.784v-28.672c0-4.096 4.096-8.192 8.192-8.192s8.192 4.096 8.192 8.192v36.864h69.632c40.96 0 77.824 32.768 77.824 77.824v28.672c-4.096 36.864-32.768 69.632-69.632 73.728zM946.176 378.368c0-32.768-24.576-57.344-57.344-57.344h-204.8c-32.768 0-57.344 24.576-57.344 57.344v28.672c0 32.768 24.576 57.344 57.344 57.344h204.8c32.768 0 57.344-24.576 57.344-57.344v-28.672zM688.128 411.136c-8.192 0-16.384-8.192-16.384-16.384s8.192-16.384 16.384-16.384c8.192 0 16.384 8.192 16.384 16.384s-4.096 16.384-16.384 16.384zM688.128 382.464c-8.192 0-12.288 4.096-12.288 12.288s4.096 12.288 12.288 12.288 12.288-4.096 12.288-12.288-4.096-12.288-12.288-12.288zM229.376 615.936h-32.768c-4.096 0-8.192-4.096-8.192-8.192s4.096-8.192 8.192-8.192h36.864c4.096 0 8.192 4.096 8.192 8.192s-4.096 8.192-12.288 8.192zM696.32 599.552c4.096 0 8.192 4.096 8.192 8.192s-4.096 8.192-8.192 8.192h-77.824c-4.096 0-8.192-4.096-8.192-8.192s4.096-8.192 8.192-8.192h77.824zM385.024 615.936h-77.824c-4.096 0-8.192-4.096-8.192-8.192s4.096-8.192 8.192-8.192h77.824c4.096 0 8.192 4.096 8.192 8.192 4.096 4.096 0 8.192-8.192 8.192zM540.672 615.936h-77.824c-4.096 0-8.192-4.096-8.192-8.192s4.096-8.192 8.192-8.192h77.824c4.096 0 8.192 4.096 8.192 8.192s-4.096 8.192-8.192 8.192zM811.008 562.688c4.096 0 8.192 4.096 8.192 8.192v36.864c0 4.096-4.096 8.192-8.192 8.192h-36.864c-4.096 0-8.192-4.096-8.192-8.192s4.096-8.192 8.192-8.192h28.672v-28.672c-4.096-4.096 0-8.192 8.192-8.192zM229.376 140.8h-32.768c-4.096 0-8.192-4.096-8.192-8.192s4.096-8.192 8.192-8.192h36.864c4.096 0 8.192 4.096 8.192 8.192s-4.096 8.192-12.288 8.192zM385.024 140.8h-77.824c-4.096 0-8.192-4.096-8.192-8.192s4.096-8.192 8.192-8.192h77.824c4.096 0 8.192 4.096 8.192 8.192 4.096 4.096 0 8.192-8.192 8.192zM618.496 140.8c-4.096 0-8.192-4.096-8.192-8.192s4.096-8.192 8.192-8.192h77.824c4.096 0 8.192 4.096 8.192 8.192s-4.096 8.192-8.192 8.192h-77.824zM540.672 140.8h-77.824c-4.096 0-8.192-4.096-8.192-8.192s4.096-8.192 8.192-8.192h77.824c4.096 0 8.192 4.096 8.192 8.192s-4.096 8.192-8.192 8.192zM811.008 173.568c-4.096 0-8.192-4.096-8.192-8.192v-24.576h-28.672c-4.096 0-8.192-4.096-8.192-8.192s4.096-8.192 8.192-8.192h36.864c4.096 0 8.192 4.096 8.192 8.192v36.864c0 0-4.096 4.096-8.192 4.096zM819.2 239.104c0 4.096-4.096 8.192-8.192 8.192s-8.192-4.096-8.192-8.192v-36.864c0-4.096 4.096-8.192 8.192-8.192s8.192 4.096 8.192 8.192v36.864z" />
<glyph unicode="&#xe90a;" glyph-name="icon_down" d="M988.383 657.252l-57.878 57.878-418.504-418.504-418.504 418.504-57.878-57.878 476.383-476.383z" />
<glyph unicode="&#xe90b;" glyph-name="icon_edit" d="M266.24 251.392l376.832 626.688-24.576 12.288c-12.288 8.192-20.48 8.192-32.768 4.096v0c-12.288-4.096-20.48-8.192-28.672-20.48l-339.968-565.248 49.152-57.344zM663.552 865.792l-380.928-626.688 122.88-20.48 352.256 585.728-94.208 61.44zM778.24 796.16l-352.256-585.728 49.152-53.248 344.064 565.248c8.192 12.288 8.192 20.48 4.096 32.768s-8.192 20.48-20.48 24.576v0 0l-24.576 16.384zM491.52 136.704c0 0-4.096-4.096 0 0-4.096-4.096-4.096-4.096-8.192-8.192l-249.856-147.456c-4.096-4.096-12.288-4.096-16.384-4.096-8.192 0-12.288 0-20.48 4.096v0c-4.096 4.096-12.288 8.192-12.288 16.384-4.096 4.096-4.096 12.288-4.096 20.48l16.384 290.816c0 0 0 4.096 0 4.096v0l348.16 573.44c8.192 16.384 24.576 24.576 40.96 28.672v0 0 0c12.288 4.096 28.672 4.096 45.056-4.096l32.768-20.48 118.784-69.632 32.768-20.48c16.384-8.192 24.576-24.576 28.672-40.96s0-32.768-8.192-49.152v0 0l-344.064-573.44zM462.848 144.896l-53.248 49.152c0 4.096-4.096 4.096-4.096 4.096s-4.096 0-4.096 0l-126.976 20.48c-4.096 0-8.192 0-12.288 4.096-4.096 0-8.192 4.096-12.288 8.192l-36.864 45.056-8.192-143.36 20.48-24.576 57.344 12.288c4.096 0 8.192 0 12.288-4.096l36.864-49.152 131.072 77.824zM204.8 99.84l-4.096-86.016c0-4.096 0-4.096 0-8.192s4.096-4.096 4.096-8.192v0c4.096 0 4.096-4.096 8.192-4.096s4.096 0 8.192 4.096l86.016 53.248-28.672 40.96-53.248-8.192c-4.096 0-8.192 0-12.288 4.096l-8.192 12.288z" />
<glyph unicode="&#xe90c;" glyph-name="icon_email" d="M516.096 632.32h-8.192c-49.152 0-94.208-20.48-126.976-53.248s-53.248-77.824-53.248-126.976v-36.864c0-49.152 20.48-94.208 53.248-126.976s77.824-53.248 126.976-53.248h180.224c4.096 0 12.288 4.096 12.288 12.288s-4.096 12.288-12.288 12.288h-180.224c-40.96 0-81.92 16.384-110.592 45.056s-45.056 69.632-45.056 110.592v36.864c0 40.96 16.384 81.92 45.056 110.592s69.632 45.056 110.592 45.056h8.192c40.96 0 81.92-16.384 110.592-45.056s45.056-69.632 45.056-110.592v-102.4c0-4.096 0-8.192-4.096-8.192-4.096-4.096-8.192-4.096-8.192-4.096h-45.056v126.976c0 24.576-8.192 45.056-24.576 61.44s-40.96 24.576-61.44 24.576h-32.768c-24.576 0-45.056-8.192-61.44-24.576s-24.576-40.96-24.576-61.44v-57.344c0-24.576 8.192-45.056 24.576-61.44s36.864-24.576 57.344-24.576h8.192c4.096 0 4.096 0 8.192 4.096l90.112 90.112v-81.92c0-4.096 4.096-12.288 12.288-12.288h53.248c8.192 0 16.384 4.096 24.576 8.192v0c0 0 0 0 0 0v0 0c4.096 8.192 8.192 16.384 8.192 24.576v102.4c0 49.152-20.48 94.208-53.248 126.976-32.768 28.672-77.824 49.152-126.976 49.152zM495.616 337.408c-16.384 0-32.768 8.192-45.056 20.48s-20.48 28.672-20.48 49.152v57.344c0 16.384 8.192 36.864 20.48 49.152s28.672 20.48 49.152 20.48h32.768c16.384 0 36.864-8.192 49.152-20.48s20.48-28.672 20.48-49.152v-24.576l-106.496-102.4zM962.56 734.72v0c-8.192 12.288-24.576 20.48-45.056 20.48h-811.008c-20.48 0-36.864-8.192-45.056-20.48-12.288-8.192-20.48-24.576-20.48-45.056v-487.424c0-16.384 8.192-32.768 20.48-45.056v0c8.192-8.192 24.576-16.384 45.056-16.384h815.104c16.384 0 32.768 8.192 45.056 20.48s20.48 28.672 20.48 45.056v483.328c-4.096 20.48-12.288 36.864-24.576 45.056zM962.56 640.512l-180.224-135.168v-24.576l180.224 135.168v-393.216l-180.224 135.168v-24.576l180.224-135.168c0-8.192-4.096-16.384-12.288-24.576s-16.384-12.288-28.672-12.288h-815.104c-12.288 0-20.48 4.096-28.672 12.288s-12.288 12.288-12.288 24.576l188.416 143.36v24.576l-192.512-143.36v389.12l188.416-143.36v24.576l-188.416 147.456v49.152c0 12.288 4.096 20.48 12.288 28.672 8.192 12.288 20.48 16.384 32.768 16.384h815.104c12.288 0 20.48-4.096 28.672-12.288v0c8.192-8.192 12.288-16.384 12.288-28.672v-53.248z" />
<glyph unicode="&#xe90d;" glyph-name="icon_geolocation" d="M479.232 13.824v438.272l-438.272 90.112 942.080 339.968-503.808-868.352zM110.592 550.4l389.12-77.824v-385.024l442.368 757.76-831.488-294.912z" />
<glyph unicode="&#xe90e;" glyph-name="icon_gps" d="M794.624 443.904c0-8.192 0-16.384-4.096-24.576-4.096-4.096 0-12.288 4.096-16.384 0 0 4.096 0 4.096 0 4.096 0 8.192 4.096 12.288 8.192 4.096 12.288 8.192 24.576 8.192 36.864 0 4.096 0 4.096 0 4.096 28.672 32.768 167.936 188.416 167.936 290.816-4.096 98.304-86.016 176.128-184.32 176.128s-180.224-81.92-180.224-180.224c0-106.496 155.648-274.432 172.032-294.912 0 4.096 0 0 0 0zM802.816 898.56c86.016 0 159.744-69.632 159.744-159.744s-118.784-229.376-155.648-270.336v0 0c-36.864 40.96-155.648 180.224-155.648 270.336-8.192 90.112 65.536 159.744 151.552 159.744zM577.536 308.736c0 0 4.096 0 0 0 8.192 0 12.288 4.096 16.384 8.192 4.096 16.384 20.48 32.768 36.864 36.864 4.096 4.096 8.192 8.192 8.192 16.384-4.096 8.192-8.192 8.192-16.384 8.192-24.576-8.192-40.96-28.672-49.152-53.248-4.096-8.192 0-16.384 4.096-16.384zM843.776 235.008h-8.192c-8.192 0-12.288-4.096-12.288-12.288s4.096-12.288 12.288-12.288h8.192c16.384 0 32.768-4.096 49.152-12.288 0 0 4.096 0 4.096 0 4.096 0 8.192 4.096 12.288 8.192s0 12.288-4.096 16.384c-20.48 8.192-40.96 12.288-61.44 12.288zM753.664 361.984c8.192 0 8.192 8.192 8.192 16.384s-8.192 8.192-12.288 8.192c-4.096 0-12.288-4.096-16.384-4.096h-45.056c-8.192 0-12.288-4.096-12.288-12.288s4.096-12.288 12.288-12.288h45.056c8.192 0 16.384 0 20.48 4.096zM708.608 210.432h65.536c0 0 0 0 0 0 8.192 0 12.288 4.096 12.288 12.288s-4.096 12.288-12.288 12.288h-65.536c-8.192 0-12.288-4.096-12.288-12.288s4.096-12.288 12.288-12.288zM835.584 1.536h-65.536c-8.192 0-12.288-4.096-12.288-12.288s4.096-12.288 12.288-12.288h65.536c8.192 0 12.288 4.096 12.288 12.288s-8.192 12.288-12.288 12.288zM704.512 1.536h-65.536c-8.192 0-12.288-4.096-12.288-12.288s4.096-12.288 12.288-12.288h65.536c8.192 0 12.288 4.096 12.288 12.288s-4.096 12.288-12.288 12.288zM950.272 54.784c-4.096 4.096-12.288 0-16.384-4.096-12.288-16.384-24.576-28.672-40.96-36.864-4.096-4.096-8.192-8.192-4.096-16.384 4.096-4.096 8.192-8.192 12.288-8.192 0 0 4.096 0 4.096 0 20.48 12.288 40.96 28.672 53.248 49.152 0 4.096-4.096 12.288-8.192 16.384zM937.984 177.664c-4.096-4.096-8.192-12.288-4.096-16.384 8.192-16.384 16.384-36.864 16.384-53.248 0-8.192 4.096-12.288 12.288-12.288 0 0 0 0 0 0 8.192 0 12.288 4.096 12.288 12.288v0c0 24.576-8.192 45.056-20.48 65.536-4.096 4.096-8.192 4.096-16.384 4.096zM643.072 214.528c4.096 0 12.288 4.096 12.288 12.288s-4.096 12.288-12.288 12.288c-16.384 4.096-32.768 12.288-45.056 28.672-4.096 4.096-12.288 8.192-16.384 4.096s-8.192-12.288-4.096-16.384c16.384-24.576 36.864-40.96 65.536-40.96 0 0 0 0 0 0zM446.464 1.536h-65.536c-8.192 0-12.288-4.096-12.288-12.288s8.192-12.288 12.288-12.288h65.536c8.192 0 12.288 4.096 12.288 12.288s-4.096 12.288-12.288 12.288zM577.536 1.536h-65.536c-8.192 0-12.288-4.096-12.288-12.288s4.096-12.288 12.288-12.288h65.536c8.192 0 12.288 4.096 12.288 12.288s-8.192 12.288-12.288 12.288zM319.488 1.536h-16.384c53.248 61.44 208.896 245.76 208.896 368.64 0 131.072-106.496 233.472-233.472 233.472-131.072 0-237.568-106.496-237.568-233.472 0-147.456 217.088-380.928 225.28-389.12 4.096-4.096 12.288-4.096 12.288-4.096s4.096 0 4.096 0h32.768c8.192 0 12.288 4.096 12.288 12.288s-4.096 12.288-8.192 12.288zM61.44 370.176c0 118.784 94.208 212.992 212.992 212.992s212.992-94.208 212.992-212.992c0-122.88-163.84-311.296-212.992-364.544v0 0c-49.152 53.248-212.992 241.664-212.992 364.544zM397.312 370.176c0 65.536-53.248 118.784-118.784 118.784s-118.784-53.248-118.784-118.784c0-65.536 53.248-118.784 118.784-118.784s118.784 53.248 118.784 118.784zM176.128 370.176c0 53.248 45.056 98.304 98.304 98.304s98.304-45.056 98.304-98.304c0-53.248-45.056-98.304-98.304-98.304s-98.304 40.96-98.304 98.304zM884.736 738.816c0 45.056-36.864 81.92-81.92 81.92s-81.92-36.864-81.92-81.92c0-45.056 36.864-81.92 81.92-81.92s81.92 36.864 81.92 81.92zM741.376 738.816c0 32.768 28.672 61.44 61.44 61.44s61.44-28.672 61.44-61.44c0-32.768-28.672-61.44-61.44-61.44s-61.44 28.672-61.44 61.44z" />
<glyph unicode="&#xe90f;" glyph-name="icon_hotline" d="M512 955.904c106.496 0 204.8-45.056 274.432-114.688s114.688-167.936 114.688-274.432v-36.864c16.384 0 28.672-8.192 36.864-16.384 12.288-12.288 16.384-28.672 16.384-45.056v-204.8c0-16.384-8.192-32.768-16.384-45.056v0c-12.288-12.288-28.672-16.384-45.056-16.384h-61.44v-40.96c0-49.152-20.48-94.208-53.248-122.88-28.672-28.672-69.632-49.152-114.688-49.152v-36.864c0-4.096-4.096-12.288-12.288-12.288h-86.016c-4.096 0-12.288 4.096-12.288 12.288v94.208c0 4.096 4.096 12.288 12.288 12.288h90.112c4.096 0 12.288-4.096 12.288-12.288v-36.864c36.864 4.096 73.728 20.48 98.304 45.056 28.672 28.672 45.056 65.536 45.056 110.592v8.192c0 0-4.096-4.096-8.192-4.096h-86.016c-4.096 0-12.288 4.096-12.288 12.288v372.736c0 4.096 4.096 12.288 12.288 12.288h86.016c0 0 0 0 0 0v0c0 81.92-32.768 155.648-86.016 208.896s-126.976 86.016-208.896 86.016c-81.92 0-155.648-32.768-208.896-86.016-49.152-53.248-81.92-126.976-81.92-208.896v-4.096c0 0 0 0 0 0h86.016c4.096 0 12.288-4.096 12.288-12.288v-368.64c0-4.096-4.096-12.288-12.288-12.288h-81.92c-4.096 0-12.288 4.096-12.288 12.288v20.48h-77.824c-16.384 0-32.768 8.192-45.056 16.384-12.288 12.288-16.384 28.672-16.384 45.056v204.8c0 16.384 8.192 32.768 16.384 45.056v0 0 0c8.192 8.192 24.576 16.384 36.864 16.384v36.864c0 106.496 45.056 204.8 114.688 274.432s167.936 114.688 274.432 114.688v0zM647.168 34.304h-65.536v-73.728h65.536v73.728zM229.376 521.728v-327.68h65.536v352.256h-65.536v-24.576zM208.896 513.536h-77.824c-12.288 0-20.48-4.096-28.672-12.288v0c-8.192-8.192-12.288-16.384-12.288-28.672v-204.8c0-12.288 4.096-20.48 12.288-28.672 8.192-12.288 20.48-16.384 28.672-16.384h77.824v290.816zM794.624 214.528v327.68h-65.536v-352.256h65.536v24.576zM888.832 513.536h-69.632v-286.72h69.632c12.288 0 20.48 4.096 28.672 12.288v0c8.192 8.192 12.288 16.384 12.288 28.672v204.8c0 12.288-4.096 20.48-12.288 28.672s-16.384 12.288-28.672 12.288v0 0zM770.048 824.832c-65.536 65.536-155.648 106.496-258.048 106.496s-192.512-40.96-258.048-106.496c-65.536-65.536-106.496-155.648-106.496-258.048v-36.864h49.152v36.864c0 86.016 36.864 163.84 94.208 221.184s135.168 94.208 221.184 94.208c86.016 0 163.84-36.864 221.184-94.208s94.208-135.168 94.208-221.184v-36.864h49.152v36.864c0 102.4-40.96 192.512-106.496 258.048z" />
<glyph unicode="&#xe910;" glyph-name="icon_iban" d="M880.64 714.24l-200.704 200.704c0 0-4.096 4.096-8.192 4.096v0h-335.872c-16.384 0-28.672-8.192-40.96-16.384-8.192-12.288-16.384-24.576-16.384-40.96v-90.112h-81.92c-16.384 0-28.672-8.192-40.96-16.384-8.192-12.288-16.384-24.576-16.384-40.96v-679.936c0-16.384 8.192-28.672 16.384-40.96 12.288-12.288 24.576-16.384 40.96-16.384h487.424c16.384 0 28.672 8.192 40.96 16.384 12.288 12.288 16.384 24.576 16.384 40.96v90.112h81.92c16.384 0 28.672 8.192 40.96 16.384 12.288 12.288 16.384 24.576 16.384 40.96v524.288c4.096 4.096 0 4.096 0 8.192zM679.936 886.272l172.032-172.032h-131.072c-12.288 0-20.48 4.096-28.672 12.288s-12.288 16.384-12.288 28.672v131.072zM724.992 136.704v0 0-102.4c0-12.288-4.096-20.48-12.288-28.672s-16.384-12.288-28.672-12.288h-487.424c-12.288 0-20.48 4.096-28.672 12.288s-12.288 16.384-12.288 28.672v0 679.936c0 12.288 4.096 20.48 12.288 28.672s16.384 12.288 28.672 12.288h323.584v-147.456c0-16.384 8.192-28.672 16.384-40.96 12.288-12.288 24.576-16.384 40.96-16.384h147.456v-413.696zM540.672 607.744v131.072l172.032-172.032h-131.072c-12.288 0-20.48 4.096-28.672 12.288s-12.288 16.384-12.288 28.672zM864.256 181.76c0-12.288-4.096-20.48-12.288-28.672s-16.384-12.288-28.672-12.288h-81.92v413.696c0 4.096 0 4.096-4.096 8.192l-102.4 106.496-98.304 98.304c0 4.096-4.096 4.096-8.192 4.096v0h-229.376v90.112c0 12.288 4.096 20.48 12.288 28.672s16.384 8.192 24.576 8.192v0h323.584v-143.36c0-16.384 8.192-28.672 16.384-40.96 12.288-12.288 24.576-16.384 40.96-16.384h147.456v-516.096zM245.76 108.032h163.84v-32.768h-163.84v32.768zM360.448 263.68c-8.192 0-16.384-4.096-24.576-8.192s-12.288-12.288-12.288-20.48c-4.096 8.192-8.192 12.288-12.288 16.384s-12.288 4.096-20.48 4.096-24.576-4.096-32.768-16.384c-8.192-8.192-12.288-24.576-12.288-40.96v-57.344h163.84v61.44c0 20.48-4.096 32.768-12.288 45.056s-20.48 16.384-36.864 16.384zM311.296 173.568h-40.96v24.576c0 8.192 0 16.384 4.096 20.48s8.192 8.192 16.384 8.192c8.192 0 12.288-4.096 16.384-8.192s4.096-12.288 4.096-20.48v-24.576zM385.024 173.568h-49.152v32.768c0 8.192 4.096 16.384 8.192 20.48s12.288 4.096 16.384 4.096c8.192 0 12.288-4.096 16.384-8.192s4.096-12.288 4.096-20.48v-28.672zM245.76 333.312l163.84-57.344v32.768l-36.864 12.288v57.344l36.864 8.192v32.768l-163.84-57.344v-28.672zM282.624 349.696l65.536 20.48v-40.96l-65.536 20.48zM245.76 538.112h110.592l-110.592-69.632v-32.768h163.84v32.768h-114.688v4.096l114.688 65.536v32.768h-163.84z" />
<glyph unicode="&#xe911;" glyph-name="icon_left" d="M721.252 924.383l57.878-57.878-418.504-418.504 418.504-418.504-57.878-57.878-476.383 476.383z" />
<glyph unicode="&#xe912;" glyph-name="icon_letter" d="M327.68 505.344h368.64c4.096 0 8.192 4.096 8.192 8.192s-4.096 8.192-8.192 8.192h-368.64c-4.096 0-8.192-4.096-8.192-8.192s0-8.192 8.192-8.192zM327.68 579.072h339.968c4.096 0 8.192 4.096 8.192 8.192s-4.096 8.192-8.192 8.192h-339.968c-8.192 4.096-12.288 0-12.288-4.096 0-8.192 4.096-12.288 12.288-12.288zM626.688 439.808c0 4.096-4.096 8.192-8.192 8.192h-290.816c-4.096 0-8.192-4.096-8.192-8.192-4.096-8.192 0-12.288 8.192-12.288h286.72c8.192 0 12.288 4.096 12.288 12.288zM958.464 554.496c-4.096 8.192-8.192 16.384-16.384 20.48l-122.88 90.112v36.864c0 4.096 0 4.096-4.096 8.192l-204.8 204.8c-4.096 4.096-4.096 4.096-8.192 4.096v0h-335.872c-16.384 0-32.768-8.192-40.96-16.384-12.288-12.288-20.48-24.576-20.48-40.96v-192.512l-122.88-90.112c-4.096-8.192-12.288-16.384-16.384-24.576s-4.096-16.384-4.096-24.576v-495.616c0-16.384 8.192-28.672 16.384-40.96v0 0 0c12.288-12.288 24.576-16.384 40.96-16.384h786.432c16.384 0 32.768 8.192 40.96 16.384 12.288 12.288 16.384 24.576 16.384 40.96v495.616c0 8.192-4.096 20.48-4.096 24.576zM610.304 886.272l176.128-172.032h-135.168c-12.288 0-20.48 4.096-28.672 12.288s-12.288 16.384-12.288 28.672v131.072zM225.28 861.696c0 12.288 4.096 20.48 12.288 28.672 8.192 4.096 16.384 8.192 28.672 8.192h327.68v-147.456c0-16.384 8.192-28.672 16.384-40.96v0c12.288-12.288 24.576-16.384 40.96-16.384h147.456v-28.672c0 0 0 0 0 0v-319.488l-118.784-90.112-131.072 98.304c-12.288 8.192-24.576 12.288-36.864 12.288s-24.576-4.096-36.864-12.288l-131.072-98.304-118.784 90.112v516.096zM81.92 529.92c0 8.192 0 12.288 4.096 16.384v0 0c4.096 4.096 8.192 8.192 12.288 12.288l110.592 81.92v-286.72l-126.976 98.304v77.824zM81.92 427.52l126.976-98.304c0 0 0 0 0 0l118.784-86.016-245.76-188.416v372.736zM929.792 9.728c-8.192-8.192-16.384-12.288-28.672-12.288h-782.336c-12.288 0-20.48 4.096-28.672 12.288v0c-4.096 4.096-8.192 12.288-8.192 20.48l270.336 204.8 139.264 106.496c8.192 4.096 16.384 8.192 24.576 8.192s16.384-4.096 24.576-8.192l139.264-106.496 270.336-204.8c-8.192-8.192-12.288-16.384-20.48-20.48zM942.080 54.784l-245.76 188.416 245.76 188.416v-376.832zM942.080 452.096l-122.88-94.208v286.72l110.592-81.92c4.096-4.096 8.192-8.192 12.288-12.288s4.096-12.288 4.096-16.384v-81.92z" />
<glyph unicode="&#xe913;" glyph-name="icon_logout" d="M311.296 628.224c28.672 28.672 57.344 49.152 94.208 61.44 8.192 4.096 16.384 4.096 24.576 8.192v20.48c-12.288 0-24.576-4.096-32.768-8.192-36.864-16.384-69.632-36.864-98.304-65.536s-49.152-61.44-65.536-98.304c-16.384-36.864-24.576-73.728-24.576-114.688s8.192-77.824 24.576-114.688c16.384-36.864 36.864-69.632 65.536-98.304s61.44-49.152 98.304-65.536c36.864-16.384 73.728-24.576 114.688-24.576s77.824 8.192 114.688 24.576c36.864 16.384 69.632 36.864 98.304 65.536s49.152 61.44 65.536 98.304c16.384 36.864 24.576 73.728 24.576 114.688s-8.192 77.824-24.576 114.688c-16.384 36.864-36.864 69.632-65.536 98.304s-61.44 49.152-98.304 65.536c-8.192 4.096-20.48 8.192-32.768 12.288v-20.48c8.192-4.096 16.384-4.096 24.576-8.192 32.768-12.288 65.536-36.864 90.112-61.44s45.056-57.344 61.44-90.112c12.288-32.768 20.48-69.632 20.48-106.496s-8.192-73.728-20.48-106.496c-12.288-32.768-36.864-65.536-61.44-90.112s-57.344-45.056-90.112-61.44c-32.768-12.288-69.632-20.48-106.496-20.48s-73.728 8.192-106.496 20.48c-32.768 12.288-65.536 36.864-90.112 61.44s-45.056 57.344-61.44 90.112c-12.288 32.768-20.48 69.632-20.48 106.496s8.192 73.728 20.48 106.496c12.288 32.768 32.768 61.44 57.344 86.016zM790.528 710.144c-53.248 49.152-118.784 86.016-196.608 102.4v-20.48c69.632-16.384 131.072-49.152 180.224-98.304 65.536-65.536 110.592-159.744 110.592-262.144s-40.96-196.608-110.592-262.144c-65.536-69.632-159.744-110.592-262.144-110.592s-196.608 40.96-262.144 110.592c-65.536 65.536-110.592 159.744-110.592 262.144s40.96 196.608 110.592 262.144c49.152 49.152 110.592 81.92 180.224 98.304v20.48c-77.824-16.384-143.36-53.248-196.608-102.4-69.632-73.728-114.688-172.032-114.688-278.528s45.056-204.8 114.688-278.528c69.632-69.632 167.936-114.688 278.528-114.688 106.496 0 204.8 45.056 278.528 114.688 69.632 69.632 114.688 167.936 114.688 278.528 0 106.496-45.056 204.8-114.688 278.528zM512 501.248c32.768 0 61.44 28.672 61.44 61.44v233.472c0 32.768-28.672 61.44-61.44 61.44s-61.44-28.672-61.44-61.44v-233.472c0-32.768 28.672-61.44 61.44-61.44zM471.040 796.16c0 20.48 16.384 36.864 40.96 36.864s40.96-16.384 40.96-36.864v-229.376c0-20.48-16.384-36.864-40.96-36.864s-40.96 16.384-40.96 36.864v229.376z" />
<glyph unicode="&#xe914;" glyph-name="icon_menu-close" d="M1015.808 34.304l-417.792 413.696 417.792 413.696-90.112 90.112-413.696-417.792-413.696 417.792-90.112-90.112 417.792-413.696-417.792-413.696 90.112-90.112 413.696 417.792 413.696-417.792z" />
<glyph unicode="&#xe915;" glyph-name="icon_menu-open" d="M0 509.44h1024v-122.88h-1024v122.88zM0 837.12h1024v-122.88h-1024v122.88zM0 181.76h1024v-122.88h-1024v122.88z" />
<glyph unicode="&#xe916;" glyph-name="icon_password" d="M765.952 67.072h-507.904c-16.384 0-32.768 8.192-45.056 16.384-12.288 12.288-16.384 28.672-16.384 45.056v303.104c0 16.384 8.192 32.768 16.384 45.056v0 0 0c8.192 8.192 16.384 12.288 28.672 16.384v61.44c0 36.864 8.192 69.632 20.48 102.4s32.768 61.44 57.344 90.112c24.576 24.576 57.344 45.056 90.112 57.344s65.536 20.48 102.4 20.48c36.864 0 73.728-8.192 102.4-20.48 32.768-12.288 61.44-32.768 90.112-57.344 24.576-24.576 45.056-53.248 57.344-90.112 16.384-28.672 20.48-65.536 20.48-102.4v-61.44c12.288-4.096 20.48-8.192 28.672-16.384 12.288-12.288 16.384-28.672 16.384-45.056v-303.104c0-16.384-8.192-32.768-16.384-45.056v0c-12.288-8.192-28.672-16.384-45.056-16.384v0zM512 415.232v0c20.48 0 36.864-8.192 49.152-20.48 12.288-16.384 20.48-32.768 20.48-53.248 0-12.288-4.096-24.576-8.192-32.768-4.096-12.288-8.192-16.384-16.384-24.576v-86.016c0-8.192-4.096-16.384-12.288-24.576-4.096-8.192-16.384-12.288-24.576-12.288h-20.48c-8.192 0-16.384 4.096-24.576 12.288-8.192 4.096-12.288 16.384-12.288 24.576v86.016c-4.096 8.192-12.288 16.384-16.384 24.576s-8.192 20.48-8.192 32.768c0 20.48 8.192 40.96 20.48 53.248 16.384 12.288 32.768 20.48 53.248 20.48zM548.864 378.368c-8.192 8.192-20.48 16.384-36.864 16.384s-28.672-4.096-36.864-16.384c-8.192-8.192-16.384-20.48-16.384-36.864 0-8.192 4.096-16.384 4.096-24.576 4.096-8.192 8.192-12.288 16.384-20.48v0c4.096 0 4.096-4.096 4.096-8.192v-94.208c0-4.096 0-8.192 4.096-12.288 4.096 0 8.192 0 12.288 0v0h20.48c4.096 0 8.192 0 12.288 4.096s4.096 8.192 4.096 12.288v0 94.208c0 4.096 0 8.192 4.096 8.192 8.192 4.096 12.288 12.288 16.384 20.48s4.096 16.384 4.096 24.576c4.096 8.192-4.096 24.576-12.288 32.768v0zM262.144 497.152h53.248v57.344c0 24.576 4.096 53.248 16.384 73.728 8.192 24.576 24.576 45.056 40.96 65.536 16.384 16.384 40.96 32.768 65.536 40.96s49.152 16.384 73.728 16.384c24.576 0 53.248-4.096 73.728-16.384 24.576-8.192 45.056-24.576 65.536-40.96 16.384-16.384 32.768-40.96 40.96-65.536s16.384-49.152 16.384-73.728v-57.344h53.248v57.344c0 32.768-8.192 65.536-20.48 94.208-12.288 32.768-32.768 57.344-53.248 81.92-24.576 24.576-49.152 40.96-81.92 53.248-28.672 12.288-61.44 20.48-94.208 20.48s-65.536-8.192-94.208-20.48c-32.768-8.192-61.44-28.672-81.92-53.248-24.576-24.576-40.96-49.152-53.248-81.92-16.384-28.672-20.48-61.44-20.48-94.208v-57.344zM335.872 497.152h352.256v57.344c0 24.576-4.096 45.056-12.288 65.536s-20.48 40.96-36.864 57.344c-16.384 16.384-36.864 28.672-57.344 36.864s-45.056 12.288-65.536 12.288c-24.576 0-45.056-4.096-65.536-12.288s-40.96-20.48-57.344-36.864c-20.48-16.384-32.768-32.768-40.96-53.248-12.288-20.48-16.384-45.056-16.384-69.632v-57.344zM327.68 476.672c0 0 0 0 0 0h-77.824c-8.192 0-16.384-4.096-24.576-12.288v0c-8.192-8.192-12.288-16.384-12.288-28.672v-303.104c0-12.288 4.096-20.48 12.288-28.672s16.384-12.288 28.672-12.288h507.904c12.288 0 20.48 4.096 28.672 12.288v0c8.192 8.192 12.288 16.384 12.288 28.672v303.104c0 12.288-4.096 20.48-12.288 28.672-8.192 4.096-12.288 12.288-24.576 12.288v0h-69.632c0 0-4.096 0-4.096 0h-364.544z" />
<glyph unicode="&#xe917;" glyph-name="icon_pdf_appels" d="M528.384 554.496l-36.864 45.056c-4.096 4.096-8.192 8.192-16.384 8.192-4.096 0-8.192 0-12.288-4.096l-24.576-16.384c-4.096-4.096-8.192-8.192-8.192-12.288v0 0c-8.192 4.096-32.768 16.384-49.152 40.96s-16.384 49.152-16.384 65.536v4.096h4.096c4.096 0 8.192 0 12.288 4.096l24.576 16.384c8.192 4.096 12.288 16.384 8.192 28.672v0l-24.576 45.056c0 0 0 0 0 0-4.096 4.096-8.192 8.192-16.384 8.192-4.096 0-8.192 0-12.288-4.096l-32.768-16.384c-4.096-4.096-16.384-28.672-16.384-61.44-4.096-28.672 0-69.632 24.576-114.688 49.152-81.92 114.688-86.016 135.168-86.016 8.192 0 16.384 0 16.384 4.096l32.768 20.48c4.096 4.096 8.192 8.192 8.192 12.288 0 0 0 8.192 0 12.288 0 0 0 0 0 0zM593.92 267.776v-106.496h20.48c12.288 0 16.384 4.096 24.576 12.288 4.096 8.192 8.192 16.384 8.192 28.672v28.672c0 12.288-4.096 20.48-8.192 28.672s-12.288 12.288-24.576 12.288h-20.48zM868.352 669.184c0 4.096 0 4.096-4.096 4.096l-241.664 241.664c0 0-4.096 4.096-4.096 4.096h-401.408c-16.384 0-32.768-8.192-45.056-20.48s-16.384-28.672-16.384-45.056v-815.104c0-16.384 8.192-32.768 20.48-45.056 8.192-8.192 24.576-16.384 40.96-16.384h585.728c16.384 0 32.768 8.192 45.056 20.48s20.48 28.672 20.48 45.056v626.688zM626.688 894.464l221.184-221.184h-167.936c-12.288 0-24.576 4.096-36.864 16.384-8.192 8.192-16.384 24.576-16.384 36.864v167.936zM856.064 353.792h-450.56c-45.056 0-77.824-36.864-77.824-77.824v-122.88c0-45.056 36.864-77.824 77.824-77.824h450.56v-32.768c0-12.288-4.096-24.576-16.384-36.864-8.192-8.192-20.48-16.384-36.864-16.384h-585.728c-12.288 0-24.576 4.096-36.864 16.384-8.192 8.192-16.384 20.48-16.384 36.864v811.008c0 12.288 4.096 24.576 16.384 36.864 12.288 8.192 24.576 16.384 36.864 16.384h393.216v-180.224c0-16.384 8.192-32.768 20.48-45.056s28.672-20.48 45.056-20.48h180.224v-307.2zM811.008 226.816v-28.672h-65.536v-65.536h-36.864v167.936h118.784v-28.672h-77.824v-40.96h61.44zM684.032 230.912v-28.672c0-20.48-8.192-36.864-20.48-49.152s-28.672-20.48-49.152-20.48h-61.44v167.936h61.44c20.48 0 36.864-8.192 49.152-20.48 12.288-16.384 20.48-32.768 20.48-49.152zM532.48 243.2c0-16.384-4.096-28.672-16.384-40.96-12.288-8.192-28.672-16.384-45.056-16.384h-28.672v-57.344h-40.96v167.936h65.536c20.48 0 36.864-4.096 45.056-16.384 12.288-8.192 20.48-20.48 20.48-36.864zM438.272 267.776v-49.152h28.672c8.192 0 16.384 4.096 20.48 8.192s8.192 12.288 8.192 16.384c0 8.192-4.096 12.288-8.192 16.384s-12.288 8.192-20.48 8.192h-28.672z" />
<glyph unicode="&#xe918;" glyph-name="icon_pdf_factures" d="M868.352 669.184c0 4.096 0 4.096-4.096 4.096l-241.664 241.664c0 0-4.096 4.096-4.096 4.096h-401.408c-16.384 0-32.768-8.192-45.056-20.48s-16.384-28.672-16.384-45.056v-815.104c0-16.384 8.192-32.768 20.48-45.056 8.192-8.192 24.576-16.384 40.96-16.384h585.728c16.384 0 32.768 8.192 45.056 20.48s20.48 28.672 20.48 45.056v626.688zM626.688 894.464l221.184-221.184h-167.936c-12.288 0-24.576 4.096-36.864 16.384-8.192 8.192-16.384 24.576-16.384 36.864v167.936zM856.064 353.792h-450.56c-45.056 0-77.824-36.864-77.824-77.824v-122.88c0-45.056 36.864-77.824 77.824-77.824h450.56v-32.768c0-12.288-4.096-24.576-16.384-36.864-8.192-8.192-20.48-16.384-36.864-16.384h-585.728c-12.288 0-24.576 4.096-36.864 16.384-8.192 8.192-16.384 20.48-16.384 36.864v811.008c0 12.288 4.096 24.576 16.384 36.864 12.288 8.192 24.576 16.384 36.864 16.384h393.216v-180.224c0-16.384 8.192-32.768 20.48-45.056s28.672-20.48 45.056-20.48h180.224v-307.2zM811.008 226.816v-28.672h-65.536v-65.536h-36.864v167.936h118.784v-28.672h-77.824v-40.96h61.44zM684.032 230.912v-28.672c0-20.48-8.192-36.864-20.48-49.152s-28.672-20.48-49.152-20.48h-61.44v167.936h61.44c20.48 0 36.864-8.192 49.152-20.48 12.288-16.384 20.48-32.768 20.48-49.152zM532.48 243.2c0-16.384-4.096-28.672-16.384-40.96-12.288-8.192-28.672-16.384-45.056-16.384h-28.672v-57.344h-40.96v167.936h65.536c20.48 0 36.864-4.096 45.056-16.384 12.288-8.192 20.48-20.48 20.48-36.864zM593.92 267.776v-106.496h20.48c12.288 0 16.384 4.096 24.576 12.288 4.096 8.192 8.192 16.384 8.192 28.672v28.672c0 12.288-4.096 20.48-8.192 28.672s-12.288 12.288-24.576 12.288h-20.48zM438.272 267.776v-49.152h28.672c8.192 0 16.384 4.096 20.48 8.192s8.192 12.288 8.192 16.384c0 8.192-4.096 12.288-8.192 16.384s-12.288 8.192-20.48 8.192h-28.672zM413.696 742.912c20.48 0 36.864-4.096 45.056-16.384l12.288 53.248c-16.384 8.192-32.768 12.288-53.248 12.288-36.864 0-69.632-12.288-94.208-36.864-16.384-20.48-28.672-40.96-32.768-65.536h-24.576l-4.096-28.672h24.576c0-4.096 0-8.192 0-16.384 0-4.096 0-8.192 0-8.192h-20.48l-4.096-32.768h28.672c4.096-24.576 16.384-45.056 32.768-65.536 24.576-24.576 53.248-36.864 90.112-36.864 20.48 0 40.96 4.096 57.344 12.288v61.44c-16.384-16.384-36.864-24.576-61.44-24.576-20.48 0-36.864 8.192-49.152 20.48-4.096 12.288-8.192 20.48-12.288 32.768h86.016l4.096 28.672h-94.208c0 4.096 0 8.192 0 12.288s0 8.192 0 12.288h102.4l4.096 32.768h-102.4c4.096 12.288 8.192 24.576 16.384 32.768 12.288 12.288 28.672 20.48 49.152 20.48z" />
<glyph unicode="&#xe919;" glyph-name="icon_phone" d="M303.104 890.368h421.888c16.384 0 32.768-8.192 45.056-16.384v0c12.288-12.288 16.384-28.672 16.384-45.056v-761.856c0-16.384-8.192-32.768-16.384-45.056-12.288-12.288-28.672-16.384-45.056-16.384h-421.888c-16.384 0-32.768 8.192-45.056 16.384v0 0 0c-12.288 12.288-16.384 28.672-16.384 45.056v761.856c0 16.384 8.192 32.768 16.384 45.056 12.288 8.192 24.576 16.384 45.056 16.384v0zM454.656 75.264v0c-4.096 0-12.288 4.096-12.288 12.288s8.192 12.288 12.288 12.288h114.688c8.192 0 12.288-4.096 12.288-12.288s-8.192-12.288-12.288-12.288h-114.688zM303.104 808.448h417.792c8.192 0 12.288-8.192 12.288-12.288v-655.36c0-8.192-8.192-12.288-12.288-12.288h-417.792c-8.192 0-12.288 8.192-12.288 12.288v655.36c0 4.096 4.096 12.288 12.288 12.288zM712.704 783.872h-401.408v-634.88h397.312v634.88h4.096zM720.896 869.888h-417.792c-12.288 0-20.48-4.096-28.672-12.288s-16.384-16.384-16.384-28.672v-761.856c0-12.288 4.096-20.48 12.288-28.672v0c8.192-8.192 16.384-12.288 28.672-12.288h421.888c12.288 0 20.48 4.096 28.672 12.288s12.288 16.384 12.288 28.672v761.856c0 12.288-4.096 20.48-12.288 28.672v0c-4.096 8.192-16.384 12.288-28.672 12.288z" />
<glyph unicode="&#xe91a;" glyph-name="icon_right" d="M302.748 924.383l-57.878-57.878 418.504-418.504-418.504-418.504 57.878-57.878 476.383 476.383z" />
<glyph unicode="&#xe91b;" glyph-name="icon_small_title_facture" d="M200.704 771.584h81.92v90.112c0 16.384 8.192 28.672 16.384 40.96 8.192 8.192 24.576 16.384 40.96 16.384v0 0 0h331.776c4.096 0 4.096 0 8.192-4.096l196.608-200.704c0 0 4.096-4.096 4.096-8.192v0-524.288c0-16.384-8.192-28.672-16.384-40.96-12.288-12.288-24.576-16.384-40.96-16.384h-81.92v-90.112c0-16.384-8.192-28.672-16.384-40.96-12.288-12.288-24.576-16.384-40.96-16.384h-483.328c-16.384 0-28.672 8.192-40.96 16.384-8.192 12.288-16.384 24.576-16.384 40.96v0 0 679.936c0 16.384 8.192 28.672 16.384 40.96 12.288 8.192 24.576 16.384 40.96 16.384v0 0 0 0zM860.16 697.856h-143.36c-16.384 0-28.672 8.192-40.96 16.384-12.288 12.288-16.384 24.576-16.384 40.96v143.36h-319.488c-12.288 0-20.48-4.096-28.672-8.192-8.192-8.192-12.288-16.384-12.288-28.672v0-90.112h233.472c4.096 0 4.096 0 8.192-4.096l98.304-98.304 98.304-102.4c4.096 0 4.096-4.096 4.096-8.192v0-413.696h81.92c12.288 0 20.48 4.096 28.672 12.288s12.288 16.384 12.288 28.672l-4.096 512zM679.936 886.272v-131.072c0-12.288 4.096-20.48 12.288-28.672 4.096-8.192 16.384-12.288 24.576-12.288h131.072l-167.936 172.032zM724.992 132.608v0 0 413.696h-143.36c-16.384 0-28.672 8.192-40.96 16.384-12.288 12.288-16.384 24.576-16.384 40.96v147.456h-323.584c-12.288 0-20.48-4.096-28.672-12.288-4.096-4.096-8.192-16.384-8.192-24.576v0-679.936c0-12.288 4.096-20.48 12.288-28.672s16.384-12.288 28.672-12.288v0 0h483.328c12.288 0 20.48 4.096 28.672 12.288s12.288 16.384 12.288 28.672v98.304h-4.096zM540.672 738.816v-131.072c0-12.288 4.096-20.48 12.288-28.672s16.384-12.288 28.672-12.288h131.072l-172.032 172.032z" />
<glyph unicode="&#xe91c;" glyph-name="icon_small_title_sim" d="M847.872 677.376c-4.096 8.192-8.192 16.384-12.288 20.48l-196.608 200.704c-8.192 8.192-12.288 12.288-20.48 12.288-8.192 4.096-16.384 4.096-24.576 4.096h-352.256c-16.384 0-32.768-8.192-45.056-20.48-16.384-8.192-24.576-24.576-24.576-45.056v0c0-135.168 0-266.24 0-401.408s0-266.24 0-401.408c0-16.384 8.192-32.768 20.48-45.056v0c12.288-12.288 28.672-20.48 45.056-20.48 90.112 0 184.32 0 274.432 0s184.32 0 274.432 0c16.384 0 32.768 8.192 45.056 20.48v0c12.288 12.288 16.384 28.672 16.384 45.056v606.208c4.096 8.192 4.096 16.384 0 24.576zM831.488 46.592c0-12.288-4.096-20.48-12.288-28.672v0c-8.192-8.192-20.48-12.288-28.672-12.288-90.112 0-184.32 0-274.432 0s-184.32 0-274.432 0c-12.288 0-20.48 4.096-28.672 12.288v0c-8.192 8.192-12.288 20.48-12.288 28.672v0c0 135.168 0 266.24 0 401.408s0 266.24 0 401.408v0c0 12.288 4.096 24.576 12.288 28.672v0c8.192 8.192 20.48 12.288 28.672 12.288v0h352.256c4.096 0 12.288 0 16.384-4.096 4.096 0 8.192-4.096 12.288-8.192l196.608-196.608c4.096-4.096 8.192-8.192 8.192-12.288 4.096-4.096 4.096-12.288 4.096-16.384v-606.208zM729.088 472.576h-438.272c-4.096 0-12.288-4.096-12.288-12.288v-360.448c0-4.096 4.096-12.288 12.288-12.288h442.368c4.096 0 12.288 4.096 12.288 12.288v364.544c-4.096 4.096-8.192 8.192-16.384 8.192zM450.56 452.096h122.88v-110.592h-122.88v110.592zM430.080 112.128h-122.88v110.592h122.88v-110.592zM573.44 112.128h-122.88v110.592h122.88v-110.592zM720.896 112.128h-122.88v110.592h122.88v-110.592zM720.896 247.296h-417.792v204.8h122.88v-122.88c0-4.096 4.096-12.288 12.288-12.288h282.624v-69.632zM720.896 337.408h-122.88v110.592h122.88v-110.592z" />
<glyph unicode="&#xe91d;" glyph-name="icon_social_media" d="M565.248 677.376c28.672-8.192 53.248-24.576 69.632-40.96 32.768-32.768 49.152-73.728 49.152-122.88 0-4.096-4.096-12.288-12.288-12.288h-327.68c-4.096 0-12.288 4.096-12.288 12.288 0 49.152 20.48 90.112 49.152 122.88 20.48 20.48 45.056 32.768 69.632 40.96-8.192 4.096-20.48 12.288-24.576 20.48-20.48 20.48-32.768 49.152-32.768 77.824s12.288 57.344 32.768 77.824c20.48 20.48 49.152 32.768 77.824 32.768s57.344-12.288 77.824-32.768c20.48-20.48 32.768-49.152 32.768-77.824s-12.288-57.344-32.768-77.824v0 0c0-8.192-8.192-16.384-16.384-20.48v0zM499.712 472.576c0 4.096 4.096 12.288 12.288 12.288 4.096 0 12.288-4.096 12.288-12.288v-69.632c20.48-4.096 36.864-12.288 53.248-24.576v0c16.384-16.384 24.576-36.864 24.576-61.44 0-20.48-4.096-36.864-16.384-49.152l57.344-57.344c4.096-4.096 4.096-12.288 0-16.384s-12.288-4.096-16.384 0l-53.248 53.248c-16.384-16.384-36.864-24.576-61.44-24.576-20.48 0-40.96 8.192-57.344 20.48l-53.248-53.248c-4.096-4.096-12.288-4.096-16.384 0s-4.096 12.288 0 16.384l53.248 53.248c-12.288 16.384-16.384 32.768-16.384 53.248 0 24.576 8.192 49.152 24.576 61.44 12.288 12.288 32.768 24.576 53.248 24.576v73.728zM462.848 267.776v0c0-4.096 0-4.096 0 0 0-4.096 0-4.096 0 0v0c16.384-16.384 32.768-24.576 53.248-24.576s36.864 8.192 49.152 20.48c12.288 12.288 20.48 28.672 20.48 49.152s-8.192 36.864-20.48 49.152-28.672 20.48-49.152 20.48v0c-20.48 0-36.864-8.192-49.152-20.48s-20.48-28.672-20.48-49.152c-4.096-20.48 4.096-32.768 16.384-45.056v0zM212.992 394.752c-28.672 0-57.344-12.288-77.824-32.768s-32.768-49.152-32.768-77.824 12.288-57.344 32.768-77.824c8.192-8.192 16.384-12.288 24.576-20.48-28.672-8.192-49.152-24.576-69.632-40.96-32.768-32.768-49.152-73.728-49.152-122.88 0-4.096 4.096-12.288 12.288-12.288h327.68c4.096 0 12.288 4.096 12.288 12.288 0 49.152-20.48 90.112-49.152 122.88-20.48 20.48-45.056 32.768-69.632 40.96 8.192 4.096 20.48 12.288 24.576 20.48v0 0c20.48 20.48 32.768 49.152 32.768 77.824s-12.288 57.344-32.768 77.824c-24.576 20.48-53.248 32.768-86.016 32.768v0zM278.528 345.6c16.384-16.384 24.576-36.864 24.576-61.44s-8.192-49.152-24.576-61.44v0c-16.384-16.384-36.864-24.576-61.44-24.576v0c-24.576 0-45.056 8.192-61.44 24.576-20.48 12.288-32.768 36.864-32.768 61.44s8.192 49.152 24.576 61.44c16.384 16.384 36.864 24.576 61.44 24.576 28.672 4.096 53.248-8.192 69.632-24.576v0zM323.584 128.512c24.576-24.576 40.96-61.44 45.056-98.304h-307.2c4.096 36.864 20.48 73.728 45.056 98.304 28.672 28.672 65.536 45.056 106.496 45.056v0c45.056 0 81.92-16.384 110.592-45.056v0zM811.008 394.752c-28.672 0-57.344-12.288-77.824-32.768s-32.768-49.152-32.768-77.824 12.288-57.344 32.768-77.824c8.192-8.192 16.384-12.288 24.576-20.48-28.672-8.192-53.248-24.576-69.632-40.96-32.768-32.768-49.152-73.728-49.152-122.88 0-4.096 4.096-12.288 12.288-12.288h327.68c4.096 0 12.288 4.096 12.288 12.288 0 49.152-20.48 90.112-49.152 122.88-20.48 20.48-45.056 32.768-69.632 40.96 8.192 4.096 16.384 12.288 24.576 20.48v0 0c20.48 20.48 32.768 49.152 32.768 77.824s-12.288 57.344-32.768 77.824c-28.672 20.48-57.344 32.768-86.016 32.768v0zM872.448 345.6c16.384-16.384 24.576-36.864 24.576-61.44s-8.192-49.152-24.576-61.44v0c-16.384-16.384-36.864-24.576-61.44-24.576v0c-24.576 0-49.152 8.192-65.536 24.576s-24.576 36.864-24.576 61.44c0 24.576 8.192 49.152 24.576 61.44 16.384 16.384 36.864 24.576 65.536 24.576 24.576 4.096 45.056-8.192 61.44-24.576v0zM917.504 128.512c24.576-24.576 40.96-61.44 45.056-98.304h-303.104c4.096 36.864 20.48 73.728 45.056 98.304 28.672 28.672 65.536 45.056 106.496 45.056v0c40.96 0 77.824-16.384 106.496-45.056v0zM512 685.568v0c24.576 0 49.152 8.192 65.536 24.576v0c16.384 16.384 24.576 36.864 24.576 61.44s-8.192 49.152-24.576 61.44c-16.384 16.384-36.864 24.576-65.536 24.576-24.576 0-45.056-8.192-61.44-24.576s-24.576-36.864-24.576-61.44c0-24.576 8.192-49.152 24.576-61.44 12.288-12.288 36.864-24.576 61.44-24.576v0zM618.496 620.032c-28.672 28.672-65.536 45.056-106.496 45.056v0c-40.96 0-81.92-16.384-106.496-45.056-24.576-24.576-40.96-61.44-45.056-98.304h303.104c0 40.96-16.384 73.728-45.056 98.304z" />
<glyph unicode="&#xe91e;" glyph-name="icon_tel_fixe" d="M102.4 787.968h20.48v8.192c0 16.384 8.192 32.768 16.384 45.056 12.288 12.288 28.672 16.384 45.056 16.384h184.32c16.384 0 28.672-4.096 40.96-16.384 0 0 20.48-20.48 20.48-32.768 0 0 0-20.48 0-20.48h491.52c16.384 0 32.768-8.192 45.056-20.48v0c8.192-8.192 16.384-24.576 16.384-40.96v-585.728c0-16.384-8.192-32.768-16.384-45.056-12.288-12.288-28.672-16.384-45.056-16.384h-495.616c-4.096-8.192-8.192-16.384-16.384-24.576-12.288-12.288-28.672-16.384-45.056-16.384h-180.224c-16.384 0-32.768 8.192-45.056 16.384v0 0 0c-8.192 8.192-12.288 12.288-16.384 24.576h-20.48c-16.384 0-32.768 8.192-45.056 16.384v0 0 0c-8.192 12.288-16.384 28.672-16.384 45.056v585.728c0 16.384 8.192 32.768 16.384 45.056 12.288 8.192 28.672 16.384 45.056 16.384v0zM835.584 579.072h-278.528c-8.192 0-12.288 8.192-12.288 12.288v81.92c0 8.192 8.192 12.288 12.288 12.288h278.528c8.192 0 12.288-8.192 12.288-12.288v-81.92c0-8.192-8.192-12.288-12.288-12.288zM757.76 235.008h61.44c4.096 0 12.288 4.096 12.288 12.288 0 4.096-4.096 12.288-12.288 12.288h-57.344c-4.096 0-12.288-4.096-12.288-12.288s4.096-12.288 8.192-12.288v0zM757.76 325.12h61.44c4.096 0 12.288 4.096 12.288 12.288 0 4.096-4.096 12.288-12.288 12.288h-57.344c-4.096 0-12.288-4.096-12.288-12.288s4.096-12.288 8.192-12.288v0zM757.76 415.232h61.44c4.096 0 12.288 4.096 12.288 12.288 0 4.096-4.096 12.288-12.288 12.288h-57.344c-4.096 0-12.288-4.096-12.288-12.288s4.096-12.288 8.192-12.288v0zM667.648 235.008h57.344c4.096 0 12.288 4.096 12.288 12.288 0 4.096-4.096 12.288-12.288 12.288h-57.344c-4.096 0-12.288-4.096-12.288-12.288s8.192-12.288 12.288-12.288v0zM667.648 325.12h57.344c4.096 0 12.288 4.096 12.288 12.288 0 4.096-4.096 12.288-12.288 12.288h-57.344c-4.096 0-12.288-4.096-12.288-12.288s8.192-12.288 12.288-12.288v0zM667.648 415.232h57.344c4.096 0 12.288 4.096 12.288 12.288 0 4.096-4.096 12.288-12.288 12.288h-57.344c-4.096 0-12.288-4.096-12.288-12.288s8.192-12.288 12.288-12.288v0zM573.44 235.008h57.344c4.096 0 12.288 4.096 12.288 12.288 0 4.096-4.096 12.288-12.288 12.288h-57.344c-4.096 0-12.288-4.096-12.288-12.288 4.096-8.192 8.192-12.288 12.288-12.288v0zM573.44 325.12h57.344c4.096 0 12.288 4.096 12.288 12.288 0 4.096-4.096 12.288-12.288 12.288h-57.344c-4.096 0-12.288-4.096-12.288-12.288 4.096-8.192 8.192-12.288 12.288-12.288v0zM573.44 415.232h57.344c4.096 0 12.288 4.096 12.288 12.288 0 4.096-4.096 12.288-12.288 12.288h-57.344c-4.096 0-12.288-4.096-12.288-12.288 4.096-8.192 8.192-12.288 12.288-12.288v0zM569.344 599.552h258.048v61.44h-258.048v-61.44zM430.080 767.488v-667.648h491.52c12.288 0 20.48 4.096 28.672 12.288s12.288 16.384 12.288 28.672v585.728c0 12.288-4.096 20.48-12.288 28.672v0c-8.192 8.192-16.384 12.288-28.672 12.288h-491.52zM143.36 779.776v-679.936c0-12.288 4.096-20.48 12.288-28.672v0c8.192-8.192 16.384-12.288 28.672-12.288h184.32c12.288 0 20.48 4.096 28.672 12.288s12.288 16.384 12.288 28.672v696.32c0 12.288-4.096 20.48-12.288 28.672v0c-8.192 8.192-16.384 12.288-28.672 12.288h-184.32c-12.288 0-20.48-4.096-28.672-12.288s-12.288-16.384-12.288-28.672v-16.384zM122.88 767.488h-20.48c-12.288 0-20.48-4.096-28.672-12.288s-12.288-16.384-12.288-28.672v-585.728c0-12.288 4.096-20.48 12.288-28.672v0c8.192-8.192 16.384-12.288 28.672-12.288h20.48v667.648z" />
<glyph unicode="&#xe91f;" glyph-name="icon_up" d="M988.383 238.748l-57.878-57.878-418.504 418.504-418.504-418.504-57.878 57.878 476.383 476.383z" />
<glyph unicode="&#xe920;" glyph-name="icon_close_thin" d="M983.040 886.272l-28.672 28.672-442.368-438.272-438.272 442.368-32.768-28.672 442.368-442.368-442.368-442.368 28.672-24.576 442.368 438.272 438.272-442.368 32.768 28.672-442.368 442.368z" />
<glyph unicode="&#xe921;" glyph-name="icon_expand_thin" d="M40.96 824.832h942.080v-40.96h-942.080v40.96zM40.96 468.48h942.080v-40.96h-942.080v40.96zM40.96 116.224h942.080v-40.96h-942.080v40.96z" />
</font>
</defs>
</svg>
